Home » Misc » Others » Reign.of.Assassins.2010.BRRIP.720P.H264-ZEKTORM.torrent
Reign.of.Assassins.2010.BRRIP.720P.H264-ZEKTORM torrent details
Category: Misc » Others
Added: 30 Apr 2011  
Seeds: 3
Peers: 167
Size: 2.34 GB
Hash: a2618da2b05e0a21dfb298bb8fa48bc978b35e8a
Tracker: http://tracker.openbittorrent.com
Tracker status: no registration required
Download: 5 times
Reign.of.Assassins.2010.BRRIP.720P.H264-ZEKTORM torrent description

Title : Jianyu
Also Known As : Reign of Assassins
Year : 2010
Genre : Action
iMDB URL : http://www.imdb.com/title/tt1460743/

Complete name : Reign.of.Assassins.2010.BRRIP.720P.H264-ZEKTORM.mp4
Format : MPEG-4
Format profile : Base Media
Codec ID : isom
File size : 2.34 GiB
Duration : 1h 59mn
Overall bit rate : 2800 Kbps
Subtitles : English (Format: srt)

Video
ID : 1
Format : AVC
Format/Info : Advanced Video Codec
Format profile : High@L4.0
Format settings, CABAC : Yes
Format settings, ReFrames : 8 frames
Codec ID : avc1
Codec ID/Info : Advanced Video Coding
Duration : 1h 59mn
Bit rate mode : Variable
Bit rate : 2574 Kbps
Width : 1280 pixels
Height : 528 pixels
Display aspect ratio : 2.424
Frame rate mode : Constant
Frame rate : 24.000 fps
Resolution : 24 bits
Colorimetry : 4:2:0
Scan type : Progressive
Bits/(Pixel*Frame) : 0.159
Stream size : 2.15 GiB (92%)
Title : Video
Writing library : x264

Audio
ID : 2
Format : AAC
Format/Info : Advanced Audio Codec
Format version : Version 4
Format profile : LC
Format settings, SBR : Yes
Format settings, PS : No
Codec ID : 40
Duration : 1h 59mn
Bit rate mode : Variable
Bit rate : 224 Kbps
Maximum bit rate : 282 Kbps
Channel(s) : 6 channels
Channel positions : Front: L C R, Rear: L R, LFE
Sampling rate : 48.0 KHz
Resolution : 16 bits
Stream size : 192 MiB (8%)
Title : Chinese
Language : Chinese



Screenshots:

[img]http://img191.imageshack.us/img191/1160/snaproa1.png[/img]

[img]http://img97.imageshack.us/img97/3905/snaproa2.png[/img]

[img]http://img69.imageshack.us/img69/7162/snaproa3.png[/img]

[img]http://img696.imageshack.us/img696/1098/snaproa4.png[/img]

Reign.of.Assassins.2010.BRRIP.720P.H264-ZEKTORM torrent trackers
No registration required    http://tracker.thepiratebay.org/announce
No registration required    udp://tracker.openbittorrent.com:80
No registration required    udp://tracker.ccc.de:80
No registration required    udp://tracker.publicbt.com:80
No registration required    http://tracker.torrentparty.com/announce
No registration required    http://pow7.com/announce
No registration required    http://torrent-downloads.to:5869/announce
No registration required    http://tracker.token.ro/announce
Unknown tracker
No registration required    http://nemesis.1337x.org/announce
No registration required    http://tracker.torrentbay.to:6969/announce
No registration required    http://exodus.1337x.org/announce
No registration required    http://inferno.demonoid.me:3389/announce
Reign.of.Assassins.2010.BRRIP.720P.H264-ZEKTORM torrent internal files
  • image Reign.of.Assassins.2010.BRRIP.720P.H264-ZEKTORM
    • image READ.hlp    13.51 KB
    • image Reign.of.Assassins.2010.BRRIP.720P.H264-ZEKTORM.mp4    2.34 GB
    • image Torrent downloaded from Demonoid.me.txt    46 Byte
  • image Subs
    • image Reign.of.Assassins.2010.BRRIP.720P.H264-ZEKTORM.srt    69.23 KB
Reign.of.Assassins.2010.BRRIP.720P.H264-ZEKTORM torrent comments
No comments
You must log in to add a comment.