Home » Movies » Misc » Children.Of.The.Corn.Genesis.2011.DvDRip.XviD.Ac3.Feel-Free.torrent
Children.Of.The.Corn.Genesis.2011.DvDRip.XviD.Ac3.Feel-Free torrent details
Category: Movies » Misc
Added: 05 Sep 2011  
Seeds: 2
Peers: 81
Size: 933.3 MB
Hash: 485e89e0a0bff43ee9829a8c555d3a8df4ce75e7
Tracker: http://tracker.openbittorrent.com
Tracker status: no registration required
Download: 4 times
Children.Of.The.Corn.Genesis.2011.DvDRip.XviD.Ac3.Feel-Free torrent description

Genre:Horror | Thriller
Language:English

http://www.imdb.com/title/tt1745672/

Source:DVD Thanks!

Format : AVI
Format/Info : Audio Video Interleave
File size : 933 MiB
Duration : 1h 20mn
Overall bit rate : 1 618 Kbps

Video
ID : 0
Format : MPEG-4 Visual
Format profile : Advanced Simple@L5
Format settings, BVOP : Yes
Format settings, QPel : No
Format settings, GMC : No warppoints
Format settings, Matrix : Default (H.263)
Codec ID : XVID
Codec ID/Hint : XviD
Duration : 1h 20mn
Bit rate : 1 161 Kbps
Width : 640 pixels
Height : 272 pixels
Display aspect ratio : 2.35:1
Frame rate : 23.976 fps
Color space : YUV
Chroma subsampling : 4:2:0
Bit depth : 8 bits
Scan type : Progressive
Bits/(Pixel*Frame) : 0.278
Stream size : 669 MiB (72%)
Writing library : XviD 1.2.1 (UTC 2008-12-04)

Audio
ID : 1
Format : AC-3
Format/Info : Audio Coding 3
Mode extension : CM (complete main)
Codec ID : 2000
Duration : 1h 20mn
Bit rate mode : Constant
Bit rate : 448 Kbps
Channel(s) : 6 channels
Channel positions : Front: L C R, Side: L R, LFE
Sampling rate : 48.0 KHz
Bit depth : 16 bits
Stream size : 258 MiB (28%)
Alignment : Aligned on interleaves
Interleave, duration : 42 ms (1.00 video frame)
Interleave, preload duration : 512 ms


Plot:
A young couple tries to free an imprisoned child with catastrophic results

Children.Of.The.Corn.Genesis.2011.DvDRip.XviD.Ac3.Feel-Free torrent trackers
No registration required    http://tracker.thepiratebay.org/announce
No registration required    udp://tracker.openbittorrent.com:80
No registration required    udp://tracker.ccc.de:80
No registration required    udp://tracker.istole.it:80
No registration required    udp://tracker.publicbt.com:80
No registration required    http://pow7.com/announce
No registration required    http://10.rarbg.com/announce
No registration required    http://tracker.novalayer.org:6969/announce
No registration required    http://9.rarbg.com:2710/announce
Children.Of.The.Corn.Genesis.2011.DvDRip.XviD.Ac3.Feel-Free torrent internal files
  • image Children.Of.The.Corn.Genesis.2011.DvDRip.XviD.Ac3.Feel-Free.avi
    • image  Children.Of.The.Corn.Genesis.2011.DvDRip.XviD.Ac3.Feel-Free.avi  932.77 MB
Children.Of.The.Corn.Genesis.2011.DvDRip.XviD.Ac3.Feel-Free torrent comments
No comments
You must log in to add a comment.